Subscribe

Home » » Kingsman The Golden Circle (2017) 720p BluRay x264 [Dual-Audio][English DD5.1+Hindi DD5.1]

Kingsman The Golden Circle (2017) 720p BluRay x264 [Dual-Audio][English DD5.1+Hindi DD5.1]









Kingsman The Golden Circle (2017) 720p BluRay x264 [Dual-Audio][English DD5.1+Hindi DD5.1] M2Tv














MEDIA INFO




General
Complete name : Kingsman The Golden Circle (2017) 720p BluRay x264 [Dual-Audio][English DD5.1+Hindi DD5.1] - Mafiaking - M2Tv.mkv
Format : Matroska
Format version : Version 4 / Version 2
File size : 1.35 GiB
Duration : 2 h 21 min
Overall bit rate : 1 375 kb/s
Movie name : Kingsman The Golden Circle (2017) 720p BluRay x264 [Dual-Audio][English DD5.1+Hindi DD5.1] - Mafiaking - M2Tv

Video
ID : 1
Format : AVC
Codec ID : V_MPEG4/ISO/AVC
Duration : 2 h 21 min
Bit rate : 925 kb/s
Width : 1 280 pixels
Height : 536 pixels
Frame rate : 23.976 (24000/1001) FPS
Stream size : 933 MiB (67%)
Title : Mafiaking
Language : English
Default : Yes
Forced : No

Audio #1
ID : 2
Codec ID : A_AC3
Duration : 2 h 21 min
Bit rate mode : Constant
Bit rate : 224 kb/s
Channel(s) : 6 channels
Sampling rate : 48.0 kHz
Stream size : 226 MiB (16%)
Title : Mafiaking
Language : Hindi
Service kind : Complete Main
Default : Yes

Audio #2
ID : 3
Codec ID : A_AC3
Duration : 2 h 21 min
Bit rate mode : Constant
Bit rate : 224 kb/s
Channel(s) : 6 channels
Sampling rate : 48.0 kHz
Stream size : 226 MiB (16%)
Title : Mafiaking
Language : English
Service kind : Complete Main
Default : No 




SCREENSHOT


















DOWNLOAD



mirrorace

uptobox

bdupload

clicknupload

Indishare




Share this article :

Post a Comment