Subscribe

Home » » Justice League (2017) 720p BluRay x264 [Dual-Audio][Eng+Hindi DD 5.1]

Justice League (2017) 720p BluRay x264 [Dual-Audio][Eng+Hindi DD 5.1]

Justice League (2017) 720p BluRay x264 [Dual-Audio][Eng+Hindi DD 5.1] 








General
Format                      : Matroska
File size                   : 1.17 GiB
Duration                    : 2 h 0 min
Overall bit rate            : 1 400 kb/s

Video
ID                          : 1
Format                      : AVC
Codec ID                    : V_MPEG4/ISO/AVC
Duration                    : 2 h 0 min
Bit rate                    : 950 kb/s
Width                       : 1 280 pixels
Height                      : 720 pixels
Display aspect ratio        : 16:9
Frame rate                  : 23.976 (24000/1001) FPS
Stream size                 : 816 MiB (68%)
Title                       : Mafiaking
Language                    : Hindi
Default                     : Yes
Forced                      : No

Audio #1
ID                          : 2
Format                      : AC-3
Codec ID                    : A_AC3
Duration                    : 2 h 0 min
Bit rate                    : 224 kb/s
Channel(s)                  : 6 channels
Stream size                 : 192 MiB (16%)
Title                       : Mafiaking
Language                    : Hindi
Default                     : Yes
Forced                      : No

Audio #2
ID                          : 3
Format                      : AC-3
Codec ID                    : A_AC3
Duration                    : 2 h 0 min
Bit rate                    : 224 kb/s
Channel(s)                  : 6 channels
Stream size                 : 192 MiB (16%)
Title                       : Mafiaking
Language                    : English
Default                     : No
Forced                      : No 


 :ss:















 :download:

mirrorace

uptobox

bdupload

clicknupload

indishare
Share this article :

Post a Comment