Subscribe

Home » » Logan.2017.720p.BluRay.x264.Dual-Audio[Hindi-English][AAC.5.1]

Logan.2017.720p.BluRay.x264.Dual-Audio[Hindi-English][AAC.5.1]





Format                      : Matroska
Format version              : Version 4 / Version 2
File size                   : 1.32 GiB
Duration                    : 2 h 17 min
Overall bit rate            : 1 371 kb/s
Movie name                  : Hon3yHD
Encoded date                : UTC 2017-06-09 20:35:12

Video
ID                          : 1
Format                      : AVC
Format/Info                 : Advanced Video Codec
Format profile              : High@L4.1
Format settings, CABAC      : Yes
Format settings, ReFrames   : 12 frames
Codec ID                    : V_MPEG4/ISO/AVC
Duration                    : 2 h 17 min
Bit rate                    : 1 024 kb/s
Width                       : 1 280 pixels
Height                      : 538 pixels
Display aspect ratio        : 2.40:1
Frame rate mode             : Constant
Frame rate                  : 23.976 (24000/1001) FPS

Audio #1
ID                          : 2
Format                      : AAC
Format/Info                 : Advanced Audio Codec
Format profile              : HE-AAC / LC
Codec ID                    : A_AAC
Duration                    : 2 h 17 min
Bit rate                    : 192 kb/s
Channel(s)                  : 6 channels
Channel positions           : Front: L C R, Side: L R, LFE
Sampling rate               : 48.0 kHz / 24.0 kHz
Frame rate                  : 23.438 FPS (1024 spf)
Compression mode            : Lossy
Delay relative to video     : 31 ms
Stream size                 : 189 MiB (14%)
Title                       : हिन्दी [Hindi] AAC 5.1 192 Kbps---W3apoN-X...Hon3yHD
Language                    : Hindi

Audio #2
ID                          : 3
Format                      : AAC
Format/Info                 : Advanced Audio Codec
Format profile              : HE-AAC / LC
Codec ID                    : A_AAC
Duration                    : 2 h 17 min
Bit rate                    : 128 kb/s
Channel(s)                  : 6 channels
Channel positions           : Front: L C R, Side: L R, LFE
Sampling rate               : 48.0 kHz / 24.0 kHz
Frame rate                  : 23.438 FPS (1024 spf)
Compression mode            : Lossy
Delay relative to video     : 31 ms
Stream size                 : 126 MiB (9%)
Title                       : English AAC 5.1 128 Kbps---W3apoN-X...Hon3yHD
Language                    : English

Text #1
ID                          : 4
Format                      : PGS
Codec ID                    : S_HDMV/PGS
Codec ID/Info               : Picture based subtitle format used on BDs/HD-DVDs
Duration                    : 29 s 700 ms
Bit rate                    : 91.1 kb/s
Count of elements           : 140
Stream size                 : 330 KiB (0%)
Title                       : Hon3yHD
Default                     : No
Forced                      : Yes

Text #2
ID                          : 5
Format                      : PGS
Codec ID                    : S_HDMV/PGS
Codec ID/Info               : Picture based subtitle format used on BDs/HD-DVDs
Duration                    : 2 h 13 min
Bit rate                    : 34.5 kb/s
Count of elements           : 3902
Stream size                 : 33.0 MiB (2%)
Title                       : English---W3apoN-X...Hon3yHD
Language                    : English
Default                     : No
Forced                      : No 




 :ss:













 :download:


https://uptobox.com/v770xqkbthhb

https://mirrorace.com/m/3txg4

https://www.up-4.net/ecxrnohv8ib1

https://clicknupload.org/dnm37xwzilds

https://megaup.net/98U9/Logan.2017.

http://www.multiup.org/4bca073ec5ff20a3b2f99a6ab00c954d




Share this article :

Post a Comment